Index du Forum -> TagTélé - Aide, questions et commentaires -> Encore et encore des problemes lors de l'envoie d'un video
Répondre au sujet     Encore et encore des problemes lors de l'envoie d'un video Aller à la page 1, 2, 3, 4, 5  Suivante 
Voir le sujet précédent :: Voir le sujet suivant  
Auteur Message
culturelles
1000 messages et +
1000 messages et +


Inscrit le: 12 Aoû 2008
Messages: 1455

MessagePosté le: Lun Avr 23, 2012 5:25 pm    Sujet du message: Encore et encore des problemes lors de l'envoie d'un video Répondre en citant



aucun thumbnail n'apparait apres l'upload d'un video.
Quoi les problemes de la derniere fois non pas ete reglé???????????????????????????????????????????
????????????????????????????????????????????????
????????????????????????????????????????????/???

L'année de misère revient encore ? j'espere pas.



Lien

_________________
Revenir en haut de page
Voir le profil de l'utilisateur Envoyer un message privé
Mondefou



Inscrit le: 24 Jan 2008
Messages: 75

MessagePosté le: Lun Avr 23, 2012 5:45 pm    Sujet du message: Répondre en citant

je viens d'envoyer une vidéo de 400 megs et ça a marché. En flv. Je ne saurais donc répondre à ça car la dernière fois, on parlait de gros fichiers impossibles à envoyer. Mais là, ça a fonctionné pour ma part.

Quelles sont les spec de ta vidéo?
Revenir en haut de page
Voir le profil de l'utilisateur Envoyer un message privé
culturelles
1000 messages et +
1000 messages et +


Inscrit le: 12 Aoû 2008
Messages: 1455

MessagePosté le: Lun Avr 23, 2012 5:57 pm    Sujet du message: Répondre en citant

Format : Flash Video
File size : 159 MiB
Duration : 15mn 54s
Overall bit rate mode : Variable
Overall bit rate : 1 399 Kbps

Video
Format : Sorenson Spark
Codec ID : 2
Duration : 15mn 54s
Bit rate : 781 Kbps
Width : 672 pixels
Height : 378 pixels
Display aspect ratio : 16:9
Frame rate mode : Constant
Frame rate : 29.970 fps
Bit depth : 8 bits
Bits/(Pixel*Frame) : 0.103
Stream size : 88.9 MiB (56%)

Audio
Format : MPEG Audio
Format version : Version 1
Format profile : Layer 3
Mode : Joint stereo
Mode extension : MS Stereo
Codec ID : 2
Codec ID/Hint : MP3
Duration : 15mn 54s
Bit rate mode : Variable
Bit rate : 128 Kbps
Channel(s) : 2 channels
Sampling rate : 44.1 KHz
Compression mode : Lossy
Stream size : 14.6 MiB (9%)


celui-ci aussi n'a pas marché

Format : Flash Video
File size : 197 MiB
Duration : 19mn 47s
Overall bit rate mode : Variable
Overall bit rate : 1 391 Kbps

Video
Format : Sorenson Spark
Codec ID : 2
Duration : 19mn 46s
Bit rate : 781 Kbps
Width : 672 pixels
Height : 378 pixels
Display aspect ratio : 16:9
Frame rate mode : Constant
Frame rate : 29.970 fps
Bit depth : 8 bits
Bits/(Pixel*Frame) : 0.103
Stream size : 111 MiB (56%)

Audio
Format : MPEG Audio
Format version : Version 1
Format profile : Layer 3
Mode : Joint stereo
Codec ID : 2
Codec ID/Hint : MP3
Duration : 19mn 47s
Bit rate mode : Variable
Bit rate : 125 Kbps
Channel(s) : 2 channels
Sampling rate : 44.1 KHz
Compression mode : Lossy
Stream size : 17.7 MiB (9%)

Il y a environ 30 minutes j'avais reussi mais la plus rien.
_________________
Revenir en haut de page
Voir le profil de l'utilisateur Envoyer un message privé
Mondefou



Inscrit le: 24 Jan 2008
Messages: 75

MessagePosté le: Lun Avr 23, 2012 6:31 pm    Sujet du message: Répondre en citant

J'ai envoyé le link de ce sujet à un prog voir s'il peut expliquer la raison de cette instabilité.
Revenir en haut de page
Voir le profil de l'utilisateur Envoyer un message privé
culturelles
1000 messages et +
1000 messages et +


Inscrit le: 12 Aoû 2008
Messages: 1455

MessagePosté le: Lun Avr 23, 2012 6:39 pm    Sujet du message: Répondre en citant

merci
ça fait 3 semaines au moins que c'est récurant
_________________
Revenir en haut de page
Voir le profil de l'utilisateur Envoyer un message privé
culturelles
1000 messages et +
1000 messages et +


Inscrit le: 12 Aoû 2008
Messages: 1455

MessagePosté le: Lun Avr 23, 2012 8:14 pm    Sujet du message: Répondre en citant

je viens de remettre les deux memes videos et ça marche...merci

j'espere que ce probleme est reglé pour de bon.

Un video avec du brutal death metal ça fais toujours peur ...je blague.

_________________
Revenir en haut de page
Voir le profil de l'utilisateur Envoyer un message privé
culturelles
1000 messages et +
1000 messages et +


Inscrit le: 12 Aoû 2008
Messages: 1455

MessagePosté le: Mar Avr 24, 2012 5:02 pm    Sujet du message: Répondre en citant

Générer des thumbnails est tres au ralenti.J'ose meme pas mettre une video trop lourd.
_________________
Revenir en haut de page
Voir le profil de l'utilisateur Envoyer un message privé
Panax
500 messages et +
500 messages et +


Inscrit le: 04 Avr 2011
Messages: 811

MessagePosté le: Mar Avr 24, 2012 5:15 pm    Sujet du message: Répondre en citant

3 erreur 500 en allant sur le site...ca marrive aussi mait jai reussi a mettre le reportage comment la biere sauva le monde Muahahaha! 300 mb en anglais mait voici la bande annonce francaise...

Lien


Dernière édition par Panax le Mar Avr 24, 2012 5:21 pm; édité 3 fois
Revenir en haut de page
Voir le profil de l'utilisateur Envoyer un message privé
culturelles
1000 messages et +
1000 messages et +


Inscrit le: 12 Aoû 2008
Messages: 1455

MessagePosté le: Mar Avr 24, 2012 5:16 pm    Sujet du message: Répondre en citant

C'est serieusement instable depuis quelque temps
_________________
Revenir en haut de page
Voir le profil de l'utilisateur Envoyer un message privé
culturelles
1000 messages et +
1000 messages et +


Inscrit le: 12 Aoû 2008
Messages: 1455

MessagePosté le: Dim Avr 29, 2012 2:02 pm    Sujet du message: Répondre en citant

Encore le meme probleme aujourd'hui.
Imposible de créer de thumbnail

Format : Flash Video
File size : 675 MiB
Duration : 1h 16mn
Overall bit rate mode : Variable
Overall bit rate : 1 230 Kbps

Video
Format : Sorenson Spark
Codec ID : 2
Duration : 1h 16mn
Bit rate : 781 Kbps
Width : 624 pixels
Height : 352 pixels
Display aspect ratio : 16:9
Frame rate mode : Constant
Frame rate : 29.970 fps
Bit depth : 8 bits
Bits/(Pixel*Frame) : 0.119
Stream size : 429 MiB (64%)

Audio
Format : MPEG Audio
Format version : Version 1
Format profile : Layer 3
Mode : Joint stereo
Mode extension : MS Stereo
Codec ID : 2
Codec ID/Hint : MP3
Duration : 1h 16mn
Bit rate mode : Variable
Bit rate : 125 Kbps
Channel(s) : 2 channels
Sampling rate : 44.1 KHz
Compression mode : Lossy
Stream size : 68.5 MiB (10%)

Même sur les vidéos moins lourd la création de thumbnail est très pénible.
Faudrait régler le problème une fois pour tout.Les pansements ça fonctionne juste temporairement.
_________________
Revenir en haut de page
Voir le profil de l'utilisateur Envoyer un message privé
rp2c



Inscrit le: 25 Jan 2012
Messages: 236

MessagePosté le: Lun Avr 30, 2012 10:47 am    Sujet du message: Répondre en citant

cé quoi le problème, Question ma vidéo sa fait 2 jours quel est en attente sur québeclip.
Revenir en haut de page
Voir le profil de l'utilisateur Envoyer un message privé
culturelles
1000 messages et +
1000 messages et +


Inscrit le: 12 Aoû 2008
Messages: 1455

MessagePosté le: Lun Avr 30, 2012 10:49 am    Sujet du message: Répondre en citant

Phil a surement oublié
contacte le
_________________
Revenir en haut de page
Voir le profil de l'utilisateur Envoyer un message privé
rp2c



Inscrit le: 25 Jan 2012
Messages: 236

MessagePosté le: Lun Avr 30, 2012 12:05 pm    Sujet du message: Répondre en citant

merci culturelles Wink
Revenir en haut de page
Voir le profil de l'utilisateur Envoyer un message privé
Philippe
1500 messages et +
1500 messages et +


Inscrit le: 02 Sep 2007
Messages: 2374

MessagePosté le: Lun Avr 30, 2012 12:44 pm    Sujet du message: Répondre en citant

ouais, j'avais oublié. Je passe valider une fois par jour d'habitude, mais hier j'ai pris congé d'internet.
_________________
*
Smile

www.philippecourchesne.com
Revenir en haut de page
Voir le profil de l'utilisateur Envoyer un message privé
rp2c



Inscrit le: 25 Jan 2012
Messages: 236

MessagePosté le: Lun Avr 30, 2012 12:47 pm    Sujet du message: Répondre en citant

pas de troube phil tout le monde a droit au repos. Wink
Revenir en haut de page
Voir le profil de l'utilisateur Envoyer un message privé
Montrer les messages depuis:   
Répondre au sujet    Index du Forum -> TagTélé - Aide, questions et commentaires
Page 1 sur 5
Aller à la page 1, 2, 3, 4, 5  Suivante

 
Sauter vers:  
Vous ne pouvez pas poster de nouveaux sujets dans ce forum
Vous ne pouvez pas répondre aux sujets dans ce forum
Vous ne pouvez pas éditer vos messages dans ce forum
Vous ne pouvez pas supprimer vos messages dans ce forum
Vous ne pouvez pas voter dans les sondages de ce forum